osu file format v14

[General]
AudioFilename: EVERYBODY DO THE FLOP (asdfmovie song) [LYRICS].mp3
AudioLeadIn: 1500
PreviewTime: 59261
Countdown: 0
SampleSet: Normal
StackLeniency: 0.7
Mode: 1
LetterboxInBreaks: 0
WidescreenStoryboard: 0

[Editor]
DistanceSpacing: 1.6
BeatDivisor: 4
GridSize: 32
TimelineZoom: 2.699999

[Metadata]
Title:EVERYBODY DO THE FLOP!
TitleUnicode:EVERYBODY DO THE FLOP!
Artist:Todd 'LilDeuceDeuce' Bryanton
ArtistUnicode:Todd 'LilDeuceDeuce' Bryanton
Creator:Raiden
Version:Muzukashii
Source:asdfmovie series
Tags:OzzyOzrock youtube randomness muffins TomSka
BeatmapID:757974
BeatmapSetID:342966

[Difficulty]
HPDrainRate:6
CircleSize:5
OverallDifficulty:5
ApproachRate:5
SliderMultiplier:1.4
SliderTickRate:1

[Events]
//Background and Video events
0,0,"flopraiden.jpg",0,100
//Break Periods
//Storyboard Layer 0 (Background)
//Storyboard Layer 1 (Fail)
//Storyboard Layer 2 (Pass)
//Storyboard Layer 3 (Foreground)
//Storyboard Sound Samples

[TimingPoints]
1736,300,4,1,0,100,1,0
30536,-100,4,1,0,100,0,1
40136,-100,4,1,0,100,0,0
59336,-100,4,1,0,100,0,1
68936,-100,4,1,0,100,0,0
85736,-100,4,1,0,100,0,1
97136,-100,4,1,0,100,0,0
98636,300,4,1,0,100,1,0
117836,-100,4,1,0,100,0,1
126836,-100,4,1,0,100,0,0
127436,-100,4,1,0,100,0,1
137036,-100,4,1,0,100,0,0
137111,-100,4,1,0,30,0,0

[HitObjects]
110,215,1736,5,4,0:0:0:0:
210,287,2036,1,0,0:0:0:0:
115,231,2186,1,8,0:0:0:0:
221,178,2486,1,0,0:0:0:0:
212,248,2636,1,8,0:0:0:0:
210,287,2786,1,0,0:0:0:0:
212,248,2936,1,0,0:0:0:0:
210,287,3236,1,0,0:0:0:0:
224,192,3386,1,8,0:0:0:0:
291,251,3686,1,0,0:0:0:0:
212,248,3836,1,8,0:0:0:0:
255,201,3986,1,8,0:0:0:0:
188,277,4136,1,0,0:0:0:0:
210,287,4436,1,0,0:0:0:0:
181,230,4586,1,8,0:0:0:0:
196,183,4886,1,0,0:0:0:0:
290,290,5036,1,0,0:0:0:0:
241,208,5336,1,8,0:0:0:0:
192,192,5486,1,8,0:0:0:0:
171,240,5636,1,8,0:0:0:0:
163,218,5786,1,0,0:0:0:0:
255,280,6086,1,0,0:0:0:0:
206,177,6236,1,8,0:0:0:0:
131,173,6536,1,0,0:0:0:0:
245,297,6836,1,0,0:0:0:0:
245,297,6986,1,8,0:0:0:0:
202,247,7286,1,0,0:0:0:0:
202,247,7436,1,0,0:0:0:0:
218,254,7586,1,0,0:0:0:0:
217,213,7736,1,8,0:0:0:0:
256,261,8036,1,0,0:0:0:0:
263,268,8186,1,8,0:0:0:0:
266,254,8486,1,8,0:0:0:0:
266,254,8636,1,0,0:0:0:0:
193,234,8936,1,8,0:0:0:0:
226,229,9236,1,0,0:0:0:0:
226,229,9386,1,8,0:0:0:0:
236,258,9536,1,8,0:0:0:0:
226,229,9836,1,8,0:0:0:0:
248,253,10136,1,0,0:0:0:0:
251,271,10286,1,0,0:0:0:0:
217,270,10361,1,0,0:0:0:0:
218,270,10436,1,0,0:0:0:0:
260,273,10586,1,0,0:0:0:0:
258,220,10736,1,12,0:0:0:0:
227,245,11336,1,4,0:0:0:0:
254,296,11636,1,8,0:0:0:0:
253,233,11936,1,0,0:0:0:0:
254,296,12236,1,8,0:0:0:0:
227,245,12536,1,0,0:0:0:0:
254,296,12836,1,8,0:0:0:0:
182,273,12986,1,0,0:0:0:0:
253,233,13136,1,0,0:0:0:0:
254,296,13436,1,8,0:0:0:0:
227,245,13736,1,0,0:0:0:0:
253,233,14036,1,0,0:0:0:0:
253,233,14336,1,8,0:0:0:0:
175,288,14636,1,0,0:0:0:0:
227,245,14936,1,0,0:0:0:0:
175,288,15236,1,8,0:0:0:0:
175,288,15386,1,8,0:0:0:0:
253,233,15536,1,0,0:0:0:0:
202,253,15836,1,0,0:0:0:0:
227,245,16136,1,12,0:0:0:0:
227,245,17336,1,0,0:0:0:0:
253,233,17636,1,0,0:0:0:0:
192,224,17786,1,0,0:0:0:0:
253,233,17936,1,0,0:0:0:0:
187,252,18236,1,8,0:0:0:0:
211,250,18536,1,12,0:0:0:0:
211,250,18836,1,8,0:0:0:0:
187,252,18986,1,0,0:0:0:0:
211,250,19136,1,8,0:0:0:0:
187,252,19286,1,0,0:0:0:0:
185,248,19436,1,8,0:0:0:0:
227,245,19736,1,0,0:0:0:0:
220,239,19886,1,0,0:0:0:0:
146,261,20036,1,8,0:0:0:0:
128,96,20336,1,4,0:0:0:0:
227,245,20936,1,4,0:0:0:0:
186,246,21236,1,8,0:0:0:0:
185,241,21536,1,0,0:0:0:0:
186,246,21836,1,8,0:0:0:0:
227,245,22136,1,0,0:0:0:0:
186,246,22436,1,8,0:0:0:0:
186,246,22586,1,0,0:0:0:0:
185,241,22736,1,0,0:0:0:0:
186,246,23036,1,8,0:0:0:0:
227,245,23336,1,0,0:0:0:0:
185,241,23636,1,0,0:0:0:0:
185,241,23936,1,8,0:0:0:0:
161,291,24236,1,0,0:0:0:0:
227,245,24536,1,0,0:0:0:0:
161,291,24836,1,8,0:0:0:0:
161,291,24986,1,8,0:0:0:0:
190,235,25136,1,0,0:0:0:0:
161,291,25436,1,0,0:0:0:0:
227,245,25736,1,0,0:0:0:0:
118,302,26036,1,8,0:0:0:0:
227,245,26336,1,0,0:0:0:0:
118,302,26636,1,8,0:0:0:0:
199,177,26786,1,8,0:0:0:0:
227,245,26936,1,0,0:0:0:0:
190,235,27236,1,0,0:0:0:0:
190,235,27536,1,8,0:0:0:0:
227,245,28136,1,4,0:0:0:0:
190,235,28436,1,8,0:0:0:0:
211,228,28586,1,0,0:0:0:0:
190,235,28736,1,0,0:0:0:0:
141,180,28886,1,0,0:0:0:0:
190,235,29036,1,8,0:0:0:0:
227,245,29336,1,0,0:0:0:0:
211,234,29486,1,0,0:0:0:0:
185,208,29636,1,8,0:0:0:0:
211,234,29786,1,8,0:0:0:0:
228,258,29936,1,4,0:0:0:0:
200,199,30236,1,8,0:0:0:0:
227,245,30536,1,4,0:0:0:0:
241,225,30836,1,8,0:0:0:0:
227,245,31136,1,0,0:0:0:0:
228,266,31211,1,0,0:0:0:0:
241,258,31286,1,0,0:0:0:0:
241,258,31436,1,8,0:0:0:0:
227,245,31736,1,4,0:0:0:0:
241,225,32036,1,0,0:0:0:0:
241,225,32336,1,0,0:0:0:0:
178,228,32411,1,0,0:0:0:0:
152,169,32486,1,0,0:0:0:0:
217,208,32636,1,8,0:0:0:0:
241,225,32936,1,0,0:0:0:0:
217,231,33086,1,0,0:0:0:0:
178,228,33236,1,8,0:0:0:0:
217,231,33386,1,0,0:0:0:0:
208,227,33536,1,0,0:0:0:0:
217,230,33686,1,0,0:0:0:0:
178,228,33836,1,8,0:0:0:0:
241,225,34136,1,0,0:0:0:0:
264,277,34436,1,8,0:0:0:0:
264,277,34586,1,0,0:0:0:0:
201,228,34886,1,0,0:0:0:0:
200,228,35036,1,8,0:0:0:0:
241,225,35336,1,4,0:0:0:0:
241,225,35636,1,8,0:0:0:0:
241,225,35936,1,0,0:0:0:0:
239,230,36011,1,0,0:0:0:0:
216,233,36086,1,0,0:0:0:0:
294,202,36236,1,8,0:0:0:0:
241,225,36536,1,4,0:0:0:0:
241,225,36836,1,0,0:0:0:0:
239,230,37136,1,0,0:0:0:0:
239,230,37211,1,0,0:0:0:0:
259,232,37286,1,0,0:0:0:0:
257,233,37436,1,8,0:0:0:0:
241,225,37736,1,4,0:0:0:0:
221,247,37886,1,0,0:0:0:0:
221,247,38036,1,8,0:0:0:0:
221,247,38186,1,0,0:0:0:0:
222,247,38336,1,8,0:0:0:0:
171,250,38636,1,8,0:0:0:0:
241,225,38936,1,12,0:0:0:0:
261,287,39086,1,8,0:0:0:0:
261,287,39161,1,8,0:0:0:0:
261,287,39236,1,8,0:0:0:0:
266,294,39386,1,8,0:0:0:0:
214,247,39536,1,0,0:0:0:0:
256,288,39836,1,8,0:0:0:0:
211,188,40136,1,4,0:0:0:0:
256,288,40436,1,8,0:0:0:0:
239,243,40736,1,0,0:0:0:0:
192,288,41036,1,8,0:0:0:0:
236,252,41336,1,0,0:0:0:0:
256,256,41636,1,8,0:0:0:0:
256,256,41786,1,0,0:0:0:0:
239,243,41936,1,0,0:0:0:0:
256,288,42236,1,8,0:0:0:0:
236,252,42536,1,0,0:0:0:0:
239,243,42836,1,0,0:0:0:0:
239,243,43136,1,8,0:0:0:0:
256,288,43436,1,0,0:0:0:0:
236,252,43736,1,0,0:0:0:0:
256,288,44036,1,8,0:0:0:0:
256,288,44186,1,8,0:0:0:0:
236,252,44336,1,0,0:0:0:0:
256,288,44636,1,8,0:0:0:0:
236,252,44936,1,0,0:0:0:0:
192,256,45236,1,8,0:0:0:0:
248,220,45536,1,0,0:0:0:0:
192,256,45836,1,8,0:0:0:0:
236,252,46136,1,0,0:0:0:0:
256,288,46436,1,8,0:0:0:0:
256,288,46586,1,0,0:0:0:0:
239,243,46736,1,0,0:0:0:0:
256,256,47036,1,8,0:0:0:0:
238,263,47336,1,4,0:0:0:0:
239,243,47636,1,0,0:0:0:0:
224,256,47786,1,0,0:0:0:0:
238,263,47936,1,8,0:0:0:0:
224,256,48086,1,0,0:0:0:0:
239,243,48236,1,0,0:0:0:0:
238,263,48536,1,0,0:0:0:0:
224,256,48686,1,0,0:0:0:0:
239,243,48836,1,8,0:0:0:0:
239,243,49136,1,4,0:0:0:0:
238,263,49736,1,4,0:0:0:0:
192,224,50036,1,8,0:0:0:0:
276,225,50336,1,0,0:0:0:0:
192,224,50636,1,8,0:0:0:0:
238,263,50936,1,0,0:0:0:0:
192,224,51236,1,8,0:0:0:0:
192,224,51386,1,0,0:0:0:0:
276,225,51536,1,0,0:0:0:0:
256,224,51836,1,8,0:0:0:0:
238,263,52136,1,0,0:0:0:0:
239,243,52436,1,0,0:0:0:0:
239,243,52736,1,8,0:0:0:0:
256,224,53036,1,0,0:0:0:0:
238,263,53336,1,0,0:0:0:0:
256,224,53636,1,8,0:0:0:0:
256,224,53786,1,8,0:0:0:0:
276,225,53936,1,0,0:0:0:0:
238,263,54536,1,0,0:0:0:0:
256,224,54836,1,8,0:0:0:0:
276,225,55136,1,0,0:0:0:0:
256,224,55436,1,8,0:0:0:0:
238,263,55736,1,0,0:0:0:0:
276,225,56036,1,8,0:0:0:0:
320,256,56186,1,0,0:0:0:0:
276,225,56336,1,8,0:0:0:0:
192,256,56636,1,8,0:0:0:0:
238,263,56936,1,4,0:0:0:0:
173,250,57236,1,8,0:0:0:0:
224,256,57386,1,8,0:0:0:0:
238,263,57536,1,0,0:0:0:0:
224,256,57686,1,0,0:0:0:0:
199,248,57836,1,8,0:0:0:0:
238,263,58136,1,0,0:0:0:0:
224,256,58286,1,0,0:0:0:0:
199,248,58436,1,8,0:0:0:0:
224,256,58586,1,0,0:0:0:0:
238,263,58736,1,4,0:0:0:0:
227,245,59336,1,4,0:0:0:0:
241,225,59636,1,8,0:0:0:0:
227,245,59936,1,0,0:0:0:0:
228,266,60011,1,0,0:0:0:0:
241,258,60086,1,0,0:0:0:0:
241,258,60236,1,8,0:0:0:0:
227,245,60536,1,4,0:0:0:0:
241,225,60836,1,0,0:0:0:0:
241,225,61136,1,0,0:0:0:0:
178,228,61211,1,0,0:0:0:0:
152,169,61286,1,0,0:0:0:0:
217,208,61436,1,8,0:0:0:0:
241,225,61736,1,0,0:0:0:0:
217,231,61886,1,0,0:0:0:0:
178,228,62036,1,8,0:0:0:0:
217,231,62186,1,0,0:0:0:0:
208,227,62336,1,0,0:0:0:0:
217,230,62486,1,0,0:0:0:0:
178,228,62636,1,8,0:0:0:0:
241,225,62936,1,0,0:0:0:0:
264,277,63236,1,8,0:0:0:0:
264,277,63386,1,0,0:0:0:0:
201,228,63686,1,0,0:0:0:0:
200,228,63836,1,8,0:0:0:0:
241,225,64136,1,4,0:0:0:0:
241,225,64436,1,8,0:0:0:0:
241,225,64736,1,0,0:0:0:0:
239,230,64811,1,0,0:0:0:0:
216,233,64886,1,0,0:0:0:0:
294,202,65036,1,8,0:0:0:0:
241,225,65336,1,4,0:0:0:0:
241,225,65636,1,0,0:0:0:0:
239,230,65936,1,0,0:0:0:0:
239,230,66011,1,0,0:0:0:0:
259,232,66086,1,0,0:0:0:0:
257,233,66236,1,8,0:0:0:0:
241,225,66536,1,4,0:0:0:0:
221,247,66686,1,0,0:0:0:0:
221,247,66836,1,8,0:0:0:0:
221,247,66986,1,0,0:0:0:0:
222,247,67136,1,8,0:0:0:0:
171,250,67436,1,8,0:0:0:0:
241,225,67736,1,12,0:0:0:0:
261,287,67886,1,8,0:0:0:0:
261,287,67961,1,8,0:0:0:0:
261,287,68036,1,8,0:0:0:0:
266,294,68186,1,8,0:0:0:0:
214,247,68336,1,0,0:0:0:0:
256,288,68636,1,8,0:0:0:0:
168,238,68936,1,12,0:0:0:0:
192,192,69236,1,8,0:0:0:0:
222,233,69536,1,8,0:0:0:0:
192,224,69836,1,0,0:0:0:0:
168,238,70136,1,0,0:0:0:0:
256,352,70436,1,8,0:0:0:0:
256,352,70586,1,0,0:0:0:0:
222,233,70736,1,0,0:0:0:0:
192,224,71036,1,0,0:0:0:0:
168,238,71336,1,8,0:0:0:0:
224,256,71636,1,8,0:0:0:0:
222,233,71936,1,8,0:0:0:0:
224,256,72236,1,0,0:0:0:0:
265,318,72536,1,0,0:0:0:0:
224,256,72836,1,0,0:0:0:0:
224,256,72986,1,8,0:0:0:0:
222,233,73136,1,0,0:0:0:0:
224,256,73436,1,0,0:0:0:0:
308,271,73736,1,8,0:0:0:0:
224,256,74036,1,8,0:0:0:0:
222,233,74336,1,8,0:0:0:0:
224,256,74636,1,0,0:0:0:0:
308,271,74936,1,0,0:0:0:0:
224,256,75236,1,0,0:0:0:0:
224,256,75386,1,8,0:0:0:0:
222,233,75536,1,0,0:0:0:0:
224,256,75836,1,0,0:0:0:0:
252,231,76136,1,12,0:0:0:0:
256,256,76436,1,8,0:0:0:0:
222,233,76736,1,8,0:0:0:0:
256,256,77036,1,8,0:0:0:0:
252,231,77336,1,8,0:0:0:0:
384,320,77486,1,8,0:0:0:0:
384,320,77561,1,8,0:0:0:0:
222,233,77636,1,8,0:0:0:0:
256,256,77786,1,8,0:0:0:0:
252,231,77936,1,8,0:0:0:0:
252,231,78536,1,12,0:0:0:0:
252,231,79736,1,8,0:0:0:0:
160,224,79886,1,8,0:0:0:0:
249,218,80036,1,0,0:0:0:0:
160,256,80186,1,0,0:0:0:0:
298,251,80336,1,0,0:0:0:0:
160,256,80486,1,8,0:0:0:0:
249,218,80636,1,0,0:0:0:0:
224,256,80786,1,0,0:0:0:0:
252,231,80936,1,12,0:0:0:0:
252,231,82136,1,8,0:0:0:0:
256,256,82286,1,0,0:0:0:0:
224,234,82436,1,0,0:0:0:0:
256,256,82586,1,8,0:0:0:0:
298,251,82736,1,0,0:0:0:0:
256,256,82886,1,0,0:0:0:0:
211,265,83036,1,8,0:0:0:0:
256,256,83186,1,0,0:0:0:0:
252,231,83336,1,12,0:0:0:0:
252,231,84536,1,8,0:0:0:0:
224,224,84686,1,8,0:0:0:0:
244,235,84836,1,0,0:0:0:0:
224,224,84986,1,0,0:0:0:0:
298,251,85136,1,0,0:0:0:0:
224,224,85286,1,8,0:0:0:0:
244,235,85436,1,0,0:0:0:0:
267,256,85736,1,0,0:0:0:0:
244,235,85886,1,0,0:0:0:0:
221,234,86036,1,8,0:0:0:0:
264,209,86336,1,0,0:0:0:0:
264,209,86636,1,0,0:0:0:0:
252,245,86936,1,8,0:0:0:0:
224,256,87236,1,0,0:0:0:0:
224,288,87536,1,8,0:0:0:0:
224,288,87836,1,8,0:0:0:0:
252,245,88136,1,8,0:0:0:0:
160,224,88211,1,8,0:0:0:0:
160,224,88286,1,8,0:0:0:0:
151,217,88436,1,0,0:0:0:0:
96,192,88586,1,0,0:0:0:0:
267,256,88736,1,0,0:0:0:0:
192,224,88886,1,8,0:0:0:0:
235,238,89036,1,0,0:0:0:0:
252,245,89336,1,8,0:0:0:0:
192,192,89636,1,8,0:0:0:0:
192,192,89936,1,8,0:0:0:0:
192,192,90236,1,8,0:0:0:0:
252,244,90536,1,8,0:0:0:0:
192,192,90611,1,8,0:0:0:0:
192,192,90686,1,8,0:0:0:0:
235,238,90836,1,0,0:0:0:0:
160,224,90986,1,0,0:0:0:0:
160,224,91136,1,8,0:0:0:0:
160,224,91286,1,0,0:0:0:0:
192,224,91436,1,8,0:0:0:0:
249,228,91736,1,8,0:0:0:0:
192,224,92036,1,8,0:0:0:0:
192,224,92336,1,8,0:0:0:0:
192,224,92636,1,8,0:0:0:0:
244,234,92936,1,8,0:0:0:0:
192,224,93011,1,8,0:0:0:0:
192,224,93086,1,8,0:0:0:0:
235,238,93236,1,0,0:0:0:0:
192,224,93386,1,0,0:0:0:0:
267,256,93536,1,8,0:0:0:0:
192,224,93686,1,8,0:0:0:0:
235,238,93836,1,0,0:0:0:0:
244,234,94136,1,8,0:0:0:0:
160,192,94436,1,8,0:0:0:0:
160,192,94736,1,8,0:0:0:0:
160,192,95036,1,8,0:0:0:0:
267,256,95336,1,0,0:0:0:0:
160,256,95411,1,0,0:0:0:0:
160,256,95486,1,0,0:0:0:0:
188,203,95636,1,0,0:0:0:0:
192,256,95786,1,8,0:0:0:0:
236,238,95936,1,0,0:0:0:0:
192,256,96086,1,0,0:0:0:0:
255,251,96236,1,8,0:0:0:0:
267,256,96536,1,12,0:0:0:0:
128,160,96836,2,0,L|288:128,1,140,,,0:0:0:0:
208,208,98636,5,4,0:0:0:0:
192,256,98936,1,8,0:0:0:0:
216,188,99236,1,0,0:0:0:0:
192,256,99536,1,8,0:0:0:0:
281,258,99836,1,0,0:0:0:0:
192,256,100136,1,8,0:0:0:0:
192,256,100286,1,0,0:0:0:0:
216,188,100436,1,0,0:0:0:0:
192,224,100736,1,8,0:0:0:0:
238,245,101036,1,0,0:0:0:0:
216,188,101336,1,0,0:0:0:0:
216,188,101636,1,8,0:0:0:0:
192,224,101936,1,0,0:0:0:0:
238,245,102236,1,0,0:0:0:0:
192,224,102536,1,8,0:0:0:0:
192,224,102686,1,8,0:0:0:0:
248,284,102836,5,0,0:0:0:0:
192,224,103136,1,8,0:0:0:0:
238,245,103436,1,4,0:0:0:0:
238,245,104636,5,0,0:0:0:0:
221,192,104936,1,0,0:0:0:0:
192,224,105086,1,8,0:0:0:0:
221,192,105236,1,8,0:0:0:0:
192,224,105536,1,8,0:0:0:0:
238,245,105836,1,4,0:0:0:0:
227,103,106136,1,8,0:0:0:0:
192,224,106286,1,8,0:0:0:0:
233,230,106436,1,0,0:0:0:0:
192,224,106586,1,0,0:0:0:0:
233,230,106736,1,8,0:0:0:0:
238,245,107036,1,0,0:0:0:0:
192,224,107186,1,0,0:0:0:0:
231,188,107336,1,8,0:0:0:0:
231,188,107636,1,4,0:0:0:0:
238,245,108236,1,4,0:0:0:0:
192,224,108536,1,8,0:0:0:0:
224,210,108836,1,0,0:0:0:0:
256,224,109136,1,8,0:0:0:0:
258,255,109436,1,0,0:0:0:0:
256,224,109736,1,8,0:0:0:0:
224,224,109886,1,0,0:0:0:0:
224,210,110036,1,0,0:0:0:0:
224,256,110336,1,8,0:0:0:0:
258,255,110636,1,0,0:0:0:0:
224,210,110936,1,0,0:0:0:0:
224,210,111236,1,8,0:0:0:0:
224,256,111536,1,0,0:0:0:0:
258,255,111836,1,0,0:0:0:0:
224,256,112136,1,8,0:0:0:0:
224,256,112286,1,8,0:0:0:0:
224,210,112436,1,0,0:0:0:0:
224,256,112736,1,8,0:0:0:0:
258,255,113036,1,0,0:0:0:0:
224,256,113336,1,8,0:0:0:0:
224,210,113636,1,0,0:0:0:0:
224,256,113936,1,8,0:0:0:0:
258,255,114236,1,0,0:0:0:0:
224,210,114536,1,8,0:0:0:0:
224,256,114686,1,0,0:0:0:0:
224,210,114836,1,8,0:0:0:0:
224,256,115136,1,8,0:0:0:0:
258,255,115436,1,12,0:0:0:0:
256,224,115586,1,0,0:0:0:0:
199,183,115736,1,8,0:0:0:0:
192,256,115886,1,0,0:0:0:0:
258,255,116036,1,8,0:0:0:0:
256,224,116186,1,0,0:0:0:0:
199,183,116336,1,8,0:0:0:0:
256,224,116486,1,0,0:0:0:0:
258,255,116636,5,12,0:0:0:0:
206,231,116936,1,8,0:0:0:0:
206,231,117236,1,12,0:0:0:0:
224,224,117536,1,8,0:0:0:0:
227,245,117836,1,4,0:0:0:0:
241,225,118136,1,8,0:0:0:0:
227,245,118436,1,0,0:0:0:0:
228,266,118511,1,0,0:0:0:0:
241,258,118586,1,0,0:0:0:0:
241,258,118736,1,8,0:0:0:0:
227,245,119036,1,4,0:0:0:0:
241,225,119336,1,0,0:0:0:0:
241,225,119636,1,0,0:0:0:0:
178,228,119711,1,0,0:0:0:0:
152,169,119786,1,0,0:0:0:0:
217,208,119936,1,8,0:0:0:0:
241,225,120236,1,0,0:0:0:0:
217,231,120386,1,0,0:0:0:0:
178,228,120536,1,8,0:0:0:0:
217,231,120686,1,0,0:0:0:0:
208,227,120836,1,0,0:0:0:0:
217,230,120986,1,0,0:0:0:0:
178,228,121136,1,8,0:0:0:0:
241,225,121436,1,0,0:0:0:0:
264,277,121736,1,8,0:0:0:0:
264,277,121886,1,0,0:0:0:0:
201,228,122186,1,0,0:0:0:0:
200,228,122336,1,8,0:0:0:0:
241,225,122636,1,4,0:0:0:0:
241,225,122936,1,8,0:0:0:0:
241,225,123236,1,0,0:0:0:0:
239,230,123311,1,0,0:0:0:0:
216,233,123386,1,0,0:0:0:0:
294,202,123536,1,8,0:0:0:0:
241,225,123836,1,4,0:0:0:0:
241,225,124136,1,0,0:0:0:0:
239,230,124436,1,0,0:0:0:0:
239,230,124511,1,0,0:0:0:0:
259,232,124586,1,0,0:0:0:0:
257,233,124736,1,8,0:0:0:0:
241,225,125036,1,4,0:0:0:0:
221,247,125186,1,0,0:0:0:0:
221,247,125336,1,8,0:0:0:0:
221,247,125486,5,0,0:0:0:0:
222,247,125636,1,8,0:0:0:0:
171,250,125936,1,8,0:0:0:0:
241,225,126236,1,12,0:0:0:0:
261,287,126386,1,8,0:0:0:0:
261,287,126461,1,8,0:0:0:0:
261,287,126536,1,8,0:0:0:0:
266,294,126686,1,8,0:0:0:0:
214,247,126836,1,0,0:0:0:0:
192,160,126986,2,0,L|320:96,1,140,,,0:0:0:0:
168,238,127436,5,4,0:0:0:0:
241,203,127736,1,8,0:0:0:0:
241,203,128036,1,8,0:0:0:0:
256,256,128111,1,8,0:0:0:0:
241,241,128186,1,8,0:0:0:0:
241,241,128336,1,8,0:0:0:0:
289,221,128636,1,0,0:0:0:0:
256,256,128711,1,0,0:0:0:0:
241,203,128786,1,0,0:0:0:0:
256,256,128936,1,8,0:0:0:0:
256,256,129086,1,8,0:0:0:0:
289,221,129236,1,0,0:0:0:0:
256,256,129386,1,0,0:0:0:0:
256,256,129536,1,8,0:0:0:0:
296,234,129836,1,4,0:0:0:0:
296,234,130136,1,8,0:0:0:0:
296,234,130436,1,8,0:0:0:0:
224,256,130511,1,8,0:0:0:0:
271,243,130586,1,8,0:0:0:0:
271,243,130736,1,8,0:0:0:0:
278,220,131036,1,0,0:0:0:0:
256,224,131111,1,0,0:0:0:0:
271,243,131186,1,0,0:0:0:0:
288,224,131336,1,8,0:0:0:0:
288,224,131486,1,8,0:0:0:0:
278,220,131636,1,0,0:0:0:0:
288,224,131786,1,0,0:0:0:0:
288,224,131936,1,8,0:0:0:0:
278,220,132236,1,4,0:0:0:0:
278,220,132536,1,8,0:0:0:0:
278,220,132836,1,8,0:0:0:0:
288,224,132911,1,8,0:0:0:0:
271,243,132986,1,8,0:0:0:0:
271,243,133136,1,8,0:0:0:0:
278,220,133436,1,0,0:0:0:0:
288,224,133511,1,0,0:0:0:0:
271,243,133586,1,0,0:0:0:0:
288,224,133736,1,8,0:0:0:0:
288,224,133886,1,8,0:0:0:0:
278,220,134036,1,0,0:0:0:0:
288,224,134186,1,0,0:0:0:0:
288,224,134336,1,8,0:0:0:0:
278,220,134636,1,8,0:0:0:0:
288,224,134711,1,8,0:0:0:0:
267,223,134786,1,8,0:0:0:0:
280,214,134936,1,8,0:0:0:0:
267,223,135086,1,8,0:0:0:0:
278,220,135236,1,8,0:0:0:0:
280,214,135536,1,8,0:0:0:0:
278,220,135836,5,8,0:0:0:0:
288,224,136136,1,8,0:0:0:0:
288,224,136286,1,0,0:0:0:0:
278,220,136436,1,8,0:0:0:0:
280,214,136736,1,0,0:0:0:0:
278,220,137036,1,4,0:0:0:0:
256,192,137186,12,0,139436,0:0:0:0:
